davidrachline
Breaker 1 2 - Breakin'Breaker 1 2 - Breakin' Midori Takada - Through The Looking GlassMidori Takada - Through The Looking Glass Radiohead - A Moon Shaped PoolRadiohead - A Moon Shaped Pool Fugees - The ScoreFugees - The Score Kings Of Tomorrow Featuring April - Fall For You EPKings Of Tomorrow Featuring April - Fall For You EP Neil Young - Harvest MoonNeil Young - Harvest Moon Shimon & Andy C - Body RockShimon & Andy C - Body Rock Neutral Milk Hotel - In The Aeroplane Over The SeaNeutral Milk Hotel - In The Aeroplane Over The Sea
» » Paul Anka - Headlines
Paul Anka - Headlines mp3

Paul Anka - Headlines mp3

Performer:
Paul Anka
Album:
Headlines
Country:
Released:
02 Aug 2017
Label:
Sony Records Int'l
Catalog:
SICP 5472
Genre:
Style:
Vocal
MP3 archive size:
2467 mb
FLAC archive size:
2003 mb

Tracklist

1Learning To Love Again
2As Long As We Keep Believing
3I Can't Get Over You
4Never Get To Know You
5Headlines
6Leave It All To Me
7Together Again
8Life Song
9Andi

Versions

CategoryArtistTitle (Format)LabelCategoryCountryYear
APL1-3382Paul Anka Headlines ‎(LP, Album)RCA VictorAPL1-3382Australia1979
AFL1-3382Paul Anka Headlines ‎(LP, Album)RCA VictorAFL1-3382Canada1979
RVP-6398Paul Anka Headlines ‎(LP, Album, Promo)RCARVP-6398Japan1979
PL 13382Paul Anka Headlines ‎(LP, Album)RCA VictorPL 13382Germany1979
PL13382Paul Anka Headlines ‎(LP)RCAPL13382UK1979
CategoryArtistTitle (Format)LabelCategoryCountryYear
APL1-3382Paul Anka Headlines ‎(LP, Album)RCA VictorAPL1-3382Australia1979
AFL1-3382Paul Anka Headlines ‎(LP, Album)RCA VictorAFL1-3382Canada1979
RVP-6398Paul Anka Headlines ‎(LP, Album, Promo)RCARVP-6398Japan1979
SICP 5472Paul Anka Headlines ‎(CD, Album, RE)Sony Records Int'lSICP 5472Japan2017
PL 13382Paul Anka Headlines ‎(LP, Album)RCA VictorPL 13382Germany1979

Video

  • foobar2000 1.4.4 / Dynamic Range Meter 1.1.1
    log date: 2019-12-03 21:10:24

    --------------------------------------------------------------------------------
    Analyzed: Paul Anka / Headlines [JP 1979/2010 CD]
    --------------------------------------------------------------------------------

    DR Peak RMS Duration Track
    --------------------------------------------------------------------------------
    DR10 -0.01 dB -11.75 dB 4:56 01-Headlines
    DR9 -0.03 dB -11.68 dB 3:45 02-As Long As We Keep Believing
    DR10 -0.04 dB -13.48 dB 3:37 03-Andi
    DR10 0.00 dB -11.07 dB 6:41 04-Never Get To Know You
    DR8 -0.01 dB -11.27 dB 5:29 05-Learning To Love Again
    DR10 0.00 dB -13.35 dB 3:32 06-I Can't Get Over You
    DR11 -0.05 dB -13.43 dB 3:03 07-Together Again
    DR10 -0.02 dB -11.68 dB 3:24 08-Life Song
    DR10 -0.02 dB -12.50 dB 5:32 09-Leave It All To Me
    --------------------------------------------------------------------------------

    Number of tracks: 9
    Official DR value: DR10

    Samplerate: 44100 Hz
    Channels: 2
    Bits per sample: 16
    Bitrate: 865 kbps
    Codec: ALAC
    ================================================================================